<?xml version="1.0" standalone="no"?>
<!DOCTYPE svg PUBLIC "-//W3C//DTD SVG 1.1//EN" "http://www.w3.org/Graphics/SVG/1.1/DTD/svg11.dtd" >
<svg xmlns="http://www.w3.org/2000/svg">
<metadata>Generated by IcoMoon</metadata>
<defs>
<font id="icons_setur" horiz-adv-x="1024">
<font-face units-per-em="1024" ascent="960" descent="-64" />
<missing-glyph horiz-adv-x="1024" />
<glyph unicode="&#x20;" horiz-adv-x="512" d="" />
<glyph unicode="&#xe900;" glyph-name="adicionar_favoritos" d="M744.961 904.983c-94.354 0-181.599-47.192-232.653-126.245l-2.341 3.657c-52.019 76.771-138.357 122.587-231.014 122.587-153.717 0-278.762-125.074-278.762-278.85 0-73.289 28.204-142.482 79.813-195.35l384.322-418.377c12.756-13.809 29.696-21.387 47.689-21.387s34.904 7.607 47.718 21.475l383.737 417.851c0.351 0.322 0.673 0.644 0.995 0.995 51.141 52.37 79.316 121.534 79.316 194.823 0.029 153.746-125.074 278.821-278.821 278.821zM903.125 472.738c-0.644-0.585-1.258-1.2-1.843-1.843l-384.556-418.787c-2.194-2.399-7.285-2.311-9.362-0.059l-383.737 417.704c-0.497 0.585-1.668 1.872-2.194 2.428-40.433 41.37-62.727 96.051-62.727 153.951 0 121.505 98.801 220.336 220.248 220.336 73.201 0 141.458-36.22 182.009-96.080l1.872-2.955c10.62-16.735 28.818-26.829 49.679-26.975 19.339 0 37.303 9.83 47.982 26.214 40.931 62.493 109.89 99.796 184.466 99.796 121.505 0 220.336-98.831 220.336-220.336 0-57.754-22.148-112.318-62.171-153.395zM642.034 491.433h-100.791v100.791c0 16.15-13.107 29.257-29.257 29.257s-29.257-13.107-29.257-29.257v-100.791h-100.791c-16.15 0-29.257-13.107-29.257-29.257s13.107-29.257 29.257-29.257h100.791v-100.791c0-16.15 13.107-29.257 29.257-29.257s29.257 13.107 29.257 29.257v100.791h100.791c16.15 0 29.257 13.107 29.257 29.257s-13.078 29.257-29.257 29.257z" />
<glyph unicode="&#xe901;" glyph-name="cama" d="M733.91 481.848v167.657c0 26.419-21.504 47.923-47.923 47.923h-347.955c-26.401 0-47.886-21.504-47.886-47.923v-167.675c-38.521-26.14-61.459-59.429-61.459-96.2v-168.457c0-10.277 8.322-18.618 18.618-18.618h84.936c10.296 0 18.618 8.341 18.618 18.618v64.884h322.318v-64.884c0-10.277 8.322-18.618 18.618-18.618h84.955c10.296 0 18.618 8.341 18.618 18.618v168.457c0 36.771-22.938 70.079-61.459 96.219zM338.032 660.191h347.937c5.883 0 10.687-4.785 10.687-10.687v-138.873c-28.728 71.177-101.935 119.473-184.618 119.473s-155.871-48.277-184.674-119.417v138.817c0.019 5.902 4.803 10.687 10.668 10.687zM650.166 519.978c-40.662 12.027-87.617 18.879-138.11 18.879-50.53 0-97.503-6.851-138.184-18.897 28.281 44.274 80.3 72.909 138.184 72.909 57.865 0 109.866-28.616 138.11-72.89zM512.056 501.62c119.938 0 222.878-43.008 242.446-97.373h-484.948c19.568 54.384 122.526 97.373 242.502 97.373zM758.132 235.809h-47.718v64.884c0 10.277-8.322 18.618-18.618 18.618h-359.554c-10.296 0-18.618-8.341-18.618-18.618v-64.884h-47.7v131.202h492.209v-131.202zM512 960c-282.307 0-512-229.674-512-512s229.693-512 512-512 512 229.674 512 512-229.693 512-512 512zM512-26.764c-261.79 0-474.764 212.973-474.764 474.764s212.973 474.764 474.764 474.764 474.764-212.973 474.764-474.764-212.973-474.764-474.764-474.764z" />
<glyph unicode="&#xe902;" glyph-name="circle_facebook" d="M457.549 584.013v-67.259h-78.832v-91.315h78.832v-234.090h94.143v234.090h78.669l11.735 91.315h-90.405v58.124c0 26.429 7.412 44.503 45.381 44.503h48.177v81.595c-8.355 1.17-37.059 3.706-70.542 3.706-69.567 0-117.159-42.423-117.159-120.669zM512 960c-282.331 0-512-229.669-512-512s229.669-512 512-512 512 229.669 512 512-229.669 512-512 512zM512-15.238c-255.415 0-463.238 207.823-463.238 463.238s207.823 463.238 463.238 463.238 463.238-207.823 463.238-463.238-207.823-463.238-463.238-463.238z" />
<glyph unicode="&#xe903;" glyph-name="circle_gplus" d="M512.032 952c-277.92 0-504-226.080-504-504s226.080-504 504-504c277.888 0 503.936 226.080 503.936 504s-226.048 504-503.936 504zM512.032-8c-251.424 0-456 204.576-456 456s204.576 456 456 456c251.392 0 455.936-204.576 455.936-456s-204.544-456-455.936-456zM402.048 487.008v-78.016h107.744c-15.936-44.096-58.176-75.584-107.744-75.584-63.328 0-114.624 51.328-114.624 114.592s51.328 114.592 114.624 114.592c28.512 0 54.56-10.4 74.624-27.648l55.264 55.264c-34.24 31.328-79.872 50.4-129.888 50.4-106.368 0-192.64-86.208-192.64-192.608s86.24-192.608 192.64-192.608c106.304 0 192.576 86.208 192.576 192.608 0 13.376-1.376 26.4-3.936 39.008h-188.64zM748.416 553.184h-49.184v-66.176h-66.208v-49.184h66.208v-66.24h49.184v66.24h66.176v49.184h-66.176z" />
<glyph unicode="&#xe904;" glyph-name="circle_mail" d="M512 960c-282.331 0-512-229.669-512-512s229.669-512 512-512 512 229.669 512 512-229.669 512-512 512zM512-15.238c-255.415 0-463.238 207.823-463.238 463.238s207.823 463.238 463.238 463.238 463.238-207.823 463.238-463.238-207.823-463.238-463.238-463.238zM684.552 674.515h-345.104c-60.075 0-108.967-48.859-108.967-108.934v-235.13c0-60.075 48.892-108.967 108.967-108.967h345.072c60.075 0 108.967 48.892 108.967 108.967v235.13c0 60.075-48.892 108.934-108.934 108.934zM734.127 303.405c-5.071-5.169-11.833-7.997-19.050-7.997-7.054 0-13.718 2.698-18.692 7.607l-112.673 110.657-52.273-49.185c-4.941-4.681-11.475-7.249-18.302-7.249-9.070 0-15.571 2.568-20.545 7.249l-52.273 49.185-112.673-110.657c-4.974-4.909-11.638-7.607-18.692-7.607-7.217 0-13.978 2.828-19.017 7.997-10.305 10.533-10.142 27.469 0.39 37.742l111.112 109.129-110.722 104.22c-5.169 4.844-8.159 11.475-8.387 18.562-0.228 7.152 2.341 13.946 7.249 19.147 4.941 5.331 12.060 8.42 19.44 8.42 6.827 0 13.328-2.568 18.302-7.282l184.743-173.852 184.808 173.852c4.941 4.714 11.475 7.282 18.302 7.282 7.379 0 14.466-3.088 19.472-8.452 4.844-5.169 7.444-11.963 7.217-19.115-0.228-7.119-3.218-13.718-8.42-18.595l-110.69-104.188 111.112-109.162c10.37-10.273 10.533-27.177 0.26-37.709z" />
<glyph unicode="&#xe905;" glyph-name="circle_twitter" d="M771.673 663.333c-21.585-13.003-45.706-22.463-71.55-27.437-20.578 21.91-49.9 35.564-82.213 35.564-62.48 0-113.030-50.42-113.030-112.77 0-8.81 1.008-17.457 2.991-25.779-93.72 4.746-177.006 49.575-232.562 117.971-9.785-16.774-15.376-36.116-15.376-56.824 0-39.042 19.992-73.598 50.29-93.85-18.53 0.585-35.986 5.591-51.102 14.108 0-0.455 0-1.008 0-1.333 0-54.678 38.782-100.385 90.405-110.787-9.46-2.471-19.505-3.933-29.712-3.933-7.184 0-14.238 0.748-21.26 1.918 14.401-44.568 56.076-77.206 105.586-78.279-38.652-30.232-87.316-48.112-140.239-48.112-9.135 0-18.172 0.585-26.787 1.528 49.9-31.988 109.064-50.745 172.877-50.745 207.498 0 321.146 171.999 321.146 321.146 0 4.746-0.26 9.655-0.26 14.531 21.91 15.929 40.96 35.694 56.076 58.352-20.187-9.005-41.968-15.051-64.691-17.717 23.146 13.881 41.155 36.051 49.412 62.448zM512 960c-282.331 0-512-229.669-512-512s229.669-512 512-512 512 229.669 512 512-229.669 512-512 512zM512-15.238c-255.415 0-463.238 207.823-463.238 463.238s207.823 463.238 463.238 463.238 463.238-207.823 463.238-463.238-207.823-463.238-463.238-463.238z" />
<glyph unicode="&#xe906;" glyph-name="como_chegar" d="M996.891 156.766c-3.584 0-7.168 0.701-10.59 2.156l-257.267 109.784c-8.973 3.827-15.171 12.207-16.222 21.908l-45.056 417.226c-1.078 9.89 3.395 19.564 11.614 25.169 8.192 5.605 18.863 6.225 27.675 1.59l209.677-109.811c7.033-3.692 12.072-10.267 13.797-18.028l92.672-417.199c2.21-9.863-1.32-20.13-9.081-26.57-4.931-4.096-11.021-6.225-17.219-6.225zM764.713 312.090l194.506-82.998-78.579 353.765-153.869 80.573 37.942-351.34zM512 159.514c-5.039 0-10.051 1.401-14.444 4.204-7.788 4.958-12.504 13.528-12.504 22.744v416.472c0 9.539 5.039 18.351 13.258 23.202l182.541 107.789c7.869 4.635 17.597 4.985 25.789 0.889s13.716-12.099 14.713-21.208l45.056-417.226c1.24-11.426-4.931-22.393-15.306-27.271l-227.624-107.035c-3.638-1.725-7.572-2.56-11.48-2.56zM538.948 587.573v-358.669l171.816 80.815-38.508 356.541-133.309-78.686zM27.109 156.766c-6.171 0-12.288 2.129-17.219 6.198-7.788 6.467-11.291 16.734-9.081 26.57l92.645 417.226c1.725 7.761 6.764 14.336 13.824 18.028l209.704 109.811c8.839 4.635 19.483 3.961 27.675-1.59 8.219-5.605 12.692-15.279 11.614-25.169l-45.11-417.226c-1.051-9.701-7.249-18.055-16.222-21.908l-257.24-109.784c-3.422-1.428-7.006-2.156-10.59-2.156zM143.36 582.857l-78.579-353.765 194.479 82.998 37.996 351.34-153.896-80.573zM512 159.514c-3.907 0-7.815 0.835-11.453 2.56l-227.651 107.035c-10.402 4.904-16.573 15.845-15.333 27.271l45.11 417.226c0.997 9.108 6.521 17.085 14.713 21.208 8.165 4.123 17.92 3.773 25.789-0.889l182.541-107.789c8.219-4.851 13.258-13.662 13.258-23.202v-416.499c0-9.216-4.716-17.812-12.504-22.744-4.419-2.776-9.432-4.177-14.471-4.177zM313.21 309.719l171.843-80.815v358.669l-133.282 78.686-38.562-356.541z" />
<glyph unicode="&#xe907;" glyph-name="copos" d="M512 960c-282.307 0-512-229.674-512-512s229.693-512 512-512 512 229.674 512 512-229.693 512-512 512zM512-26.764c-261.79 0-474.764 212.973-474.764 474.764s212.973 474.764 474.764 474.764 474.764-212.973 474.764-474.764-212.973-474.764-474.764-474.764zM235.948 434.539c-17.278-62.874 18.581-128.279 82.106-146.544l-17.315-98.099c-23.664 2.365-44.293-0.577-55.501-8.341-3.686-2.551-5.511-7.075-4.506-11.45 0.931-4.375 4.487-7.745 8.862-8.527l115.749-20.406c4.394-0.782 8.862 1.173 11.245 4.971 2.42 3.798 2.253 8.639-0.317 12.288-7.875 11.152-26.252 20.945-49.32 26.829l17.315 98.099c65.946-4.561 121.986 44.628 127.255 109.624 4.952 51.479 9.905 102.94 14.857 154.438l-211.596 37.292c-12.958-50.046-25.879-100.11-38.838-150.174zM459.795 527.202l-12.716-131.854c-2.197-27.108-15.565-51.796-36.678-68.105-21.299-16.44-47.96-22.882-75.050-18.115l-0.074 0.019c-27.164 4.785-50.046 19.94-64.438 42.71-14.262 22.547-18.358 50.306-11.245 76.167l33.252 128.614 166.949-29.435zM338.87 329.29l0.056-0.019c21.336-3.761 42.319 1.266 59.001 14.168 16.589 12.791 27.089 32.451 28.858 53.862l6.163 64.065h-143.621l-10.017-38.744c-5.604-20.331-2.365-42.152 8.862-59.839 11.264-17.818 29.268-29.715 50.697-33.494zM731.639 496.966l-19.493 55.073h-142.336l17.464-94.431c3.537-20.797 15.695-39.191 33.327-50.493 17.743-11.394 39.098-14.559 60.118-8.937l0.056 0.019c20.945 5.623 37.814 19.028 47.495 37.776 9.607 18.581 10.836 40.83 3.37 60.993zM730.764 262.619l-25.786 96.2c61.701 23.72 91.695 92.011 69.018 153.135-17.278 48.761-34.518 97.485-51.796 146.246l-207.5-55.613c9.421-50.846 18.823-101.674 28.262-152.539 10.892-64.289 71.066-108.414 136.341-98.118l25.786-96.2c-22.491-7.875-39.936-19.251-46.843-31.037-2.216-3.854-1.974-8.713 0.763-12.269 2.718-3.575 7.317-5.12 11.636-3.966l113.552 30.403c4.301 1.173 7.54 4.822 8.099 9.272 0.596 4.45-1.601 8.806-5.492 11.003-11.86 6.777-32.638 7.913-56.041 3.482zM686.006 378.424c-26.68-7.131-53.825-3.072-76.465 11.487-22.454 14.392-37.907 37.832-42.394 64.27l-24.204 130.607 163.71 43.864 44.255-124.872c9.458-25.507 7.801-53.509-4.468-77.21-12.362-23.924-33.792-41.016-60.36-48.128l-0.074-0.019zM449.331 700.742l-63.097 63.078-17.315-17.352 63.060-63.078c5.064 6.479 10.873 12.307 17.352 17.352zM592.021 683.427l63.060 63.060-17.352 17.352-63.060-63.060c6.479-5.083 12.325-10.91 17.352-17.352zM524.269 810.813h-24.539v-89.181c4.077 0.503 8.118 0.819 12.288 0.819 4.152 0 8.211-0.317 12.251-0.801v89.162z" />
<glyph unicode="&#xe908;" glyph-name="facebook" horiz-adv-x="1022" d="M738.133 960h-454.217c-156.477 0-283.794-127.561-283.794-284.331v-455.339c0-156.77 127.317-284.331 283.794-284.331h454.168c156.477 0 283.746 127.561 283.746 284.331v455.339c0.049 156.77-127.22 284.331-283.697 284.331zM956.782 220.331c0-120.881-98.109-219.234-218.648-219.234h-118.638v340.602h110.836l16.579 128.683h-127.415v82.018c0 37.157 10.435 62.659 63.976 62.659h67.925v114.883c-11.703 1.658-52.126 5.266-99.377 5.266-98.060 0-165.059-59.782-165.059-170.033v-94.793h-111.177v-128.683h111.128v-340.602h-202.996c-120.637 0-218.697 98.353-218.697 219.234v455.339c0 120.881 98.109 219.234 218.697 219.234h454.168c120.588 0 218.648-98.353 218.648-219.234v-455.339z" />
<glyph unicode="&#xe909;" glyph-name="filme" d="M987.428 831.999h-950.857c-20.187 0-36.571-16.384-36.571-36.571v-694.857c0-20.187 16.384-36.571 36.571-36.571h950.857c20.187 0 36.571 16.384 36.571 36.571v694.857c0 20.187-16.384 36.571-36.571 36.571zM707.071 758.856h85.321v-83.054h-85.321v83.054zM548.57 758.856h85.321v-83.054h-85.321v83.054zM390.106 758.856h85.321v-83.054h-85.321v83.054zM231.642 758.856h85.321v-83.054h-85.321v83.054zM73.142 758.856h85.358v-83.054h-85.358v83.054zM158.5 137.142h-85.358v83.090h85.358v-83.090zM316.964 137.142h-85.321v83.090h85.321v-83.090zM475.428 137.142h-85.321v83.090h85.321v-83.090zM633.928 137.142h-85.358v83.090h85.321v-83.090zM792.392 137.142h-85.321v83.090h85.321v-83.090zM950.856 137.142h-85.321v83.090h85.321v-83.090zM950.856 293.375h-877.714v309.285h877.714v-309.285zM950.856 675.802h-85.321v83.054h85.321v-83.054z" />
<glyph unicode="&#xe90a;" glyph-name="flicker" horiz-adv-x="1022" d="M493.544 448c0-79.768-64.665-144.433-144.433-144.433s-144.433 64.665-144.433 144.433c0 79.768 64.665 144.433 144.433 144.433s144.433-64.665 144.433-144.433zM817.274 448c0-79.768-64.665-144.433-144.433-144.433s-144.433 64.665-144.433 144.433c0 79.768 64.665 144.433 144.433 144.433s144.433-64.665 144.433-144.433zM738.133 960h-454.217c-156.477 0-283.794-127.561-283.794-284.331v-455.339c0-156.77 127.317-284.331 283.794-284.331h454.168c156.477 0 283.746 127.561 283.746 284.331v455.339c0.049 156.77-127.22 284.331-283.697 284.331zM956.782 220.331c0-120.881-98.060-219.234-218.648-219.234h-454.217c-120.588 0-218.697 98.353-218.697 219.234v455.339c0 120.881 98.158 219.234 218.697 219.234h454.168c120.637 0 218.648-98.353 218.648-219.234v-455.339z" />
<glyph unicode="&#xe90b;" glyph-name="instagram" horiz-adv-x="1022" d="M738.133 960h-454.217c-156.477 0-283.794-127.561-283.794-284.331v-455.339c0-156.77 127.317-284.331 283.794-284.331h454.168c156.477 0 283.746 127.561 283.746 284.331v455.339c0.049 156.77-127.22 284.331-283.697 284.331zM956.782 220.331c0-120.881-98.060-219.234-218.648-219.234h-454.217c-120.588 0-218.697 98.353-218.697 219.234v455.339c0 120.881 98.158 219.234 218.697 219.234h454.168c120.637 0 218.648-98.353 218.648-219.234v-455.339zM510.805 680.302c-127.902 0-231.912-104.204-231.912-232.253 0-128.098 104.009-232.35 231.912-232.35 127.805 0 231.863 104.253 231.863 232.35 0 128.049-104.058 232.253-231.863 232.253zM510.805 280.795c-92.014 0-166.814 75.045-166.814 167.253 0 92.16 74.801 167.156 166.814 167.156 91.965 0 166.766-74.996 166.766-167.156 0-92.209-74.85-167.253-166.766-167.253zM776.46 781.044c-36.523 0-66.365-29.794-66.365-66.511 0-36.864 29.842-66.804 66.365-66.804 36.718 0 66.462 29.94 66.462 66.804 0 36.718-29.745 66.511-66.462 66.511z" />
<glyph unicode="&#xe90c;" glyph-name="nuvem" d="M723.161 686.012c-61.44 0-117.681-30.11-151.946-79.892-40.172 31.685-90.663 50.767-145.388 50.767-117.248 0-215.788-86.587-232.96-200.645-4.175 0.276-8.31 0.63-12.564 0.63-101.849 0-184.714-82.865-184.714-184.734s82.865-184.714 184.734-184.714h527.931c101.849 0 184.714 82.865 184.714 184.714 0 38.971-12.209 75.106-32.886 104.96 30.681 33.89 48.030 78.119 48.030 123.963 0 101.986-82.964 184.95-184.95 184.95zM708.234 126.809h-527.911c-80.128 0-145.349 65.201-145.349 145.329s65.221 145.329 145.349 145.329 145.329-65.201 145.329-145.329c0-10.87 8.802-19.692 19.692-19.692s19.692 8.822 19.692 19.692c0 84.007-56.418 154.978-133.337 177.29 13.922 95.449 96.177 168.054 194.127 168.054 107.166 0 195.289-87.237 196.45-194.462 0-0.020 0.020-0.039 0.020-0.079 0-0.827 0.039-1.674 0.118-2.028 0-35.328-9.728-70.203-28.121-100.844-5.593-9.314-2.58-21.406 6.754-27.018 3.17-1.91 6.676-2.816 10.122-2.816 6.695 0 13.214 3.407 16.896 9.551 20.066 33.418 31.035 71.129 32.945 109.627 15.222 5.258 31.055 8.054 47.222 8.054 80.128 0 145.329-65.201 145.329-145.329s-65.182-145.329-145.329-145.329zM833.91 407.129c-33.004 30.759-77.115 49.723-125.676 49.723-16.522 0-32.729-2.422-48.502-6.735-6.164 49.073-27.569 93.44-59.234 128.473 26.604 42.142 72.31 68.017 122.663 68.017 80.266 0 145.566-65.28 145.566-145.546 0-34.462-12.583-67.742-34.816-93.932zM779.382 716.712c1.477-0.335 2.934-0.492 4.391-0.492 8.98 0 17.113 6.183 19.2 15.321l11.599 51.042c2.402 10.614-4.254 21.15-14.848 23.572-10.614 2.422-21.169-4.234-23.572-14.828l-11.599-51.042c-2.422-10.614 4.234-21.169 14.828-23.572zM1011.161 470.066l-51.042 11.618c-10.575 2.442-21.15-4.214-23.552-14.828-2.422-10.614 4.214-21.169 14.828-23.572l51.042-11.618c1.457-0.335 2.934-0.492 4.391-0.492 8.98 0 17.093 6.183 19.18 15.321 2.402 10.594-4.234 21.15-14.848 23.572zM594.708 696.055c3.742-5.947 10.161-9.216 16.699-9.216 3.584 0 7.207 0.965 10.457 3.013 9.216 5.79 11.973 17.959 6.183 27.156l-27.845 44.288c-5.79 9.196-17.94 11.973-27.156 6.183-9.216-5.77-11.973-17.94-6.183-27.136l27.845-44.288zM981.169 646.036c9.196 5.79 11.953 17.959 6.164 27.156-5.77 9.196-17.9 11.934-27.156 6.164l-44.308-27.884c-9.196-5.79-11.953-17.959-6.164-27.156 3.722-5.947 10.142-9.196 16.679-9.196 3.584 0 7.207 0.985 10.476 3.033l44.308 27.884z" />
<glyph unicode="&#xe90d;" glyph-name="remover_favoritos" d="M512.044-8.996c-18.022 0-34.933 7.607-47.689 21.387l-384.322 418.377c-51.639 52.897-79.843 122.090-79.843 195.379 0 153.776 125.045 278.85 278.762 278.85 92.657 0 178.995-45.817 231.014-122.558l2.341-3.657c51.054 79.024 138.269 126.215 232.653 126.215 153.746 0 278.85-125.074 278.85-278.85 0-73.289-28.175-142.482-79.316-194.823-0.322-0.351-0.644-0.673-0.995-0.995l-383.737-417.851c-12.815-13.868-29.755-21.475-47.718-21.475zM278.952 846.482c-121.446 0-220.248-98.831-220.248-220.336 0-57.9 22.294-112.581 62.757-153.98 0.527-0.556 1.697-1.843 2.194-2.428l383.737-417.704c2.077-2.224 7.168-2.341 9.362 0.059l384.556 418.816c0.585 0.644 1.2 1.229 1.843 1.843 40.024 41.106 62.171 95.642 62.171 153.424-0.029 121.476-98.889 220.306-220.365 220.306-74.547 0-143.506-37.303-184.466-99.767-10.679-16.384-28.643-26.214-47.982-26.214-20.831 0.146-39.029 10.24-49.679 26.975l-1.843 2.926c-40.58 59.86-108.807 96.080-182.038 96.080z" />
<glyph unicode="&#xe90e;" glyph-name="talher" d="M512 960c-282.307 0-512-229.674-512-512s229.693-512 512-512 512 229.674 512 512-229.693 512-512 512zM512-26.764c-261.79 0-474.764 212.973-474.764 474.764s212.973 474.764 474.764 474.764 474.764-212.973 474.764-474.764-212.973-474.764-474.764-474.764zM475.155 762.126v-146.842h-21.299v146.171c0.112 17.911-23.068 17.259-23.254 0.67v-146.842h-21.243v146.506c-0.074 17.427-23.943 16.403-23.943 0.67v-147.158h-20.592v145.836c-0.149 18.451-24.967 17.799-24.911 0.67v-197.353c-0.056-28.020 21.206-46.843 45.503-46.843v-358.121c0.112-51.014 69.427-51.014 69.427 0v358.102c25.079 0 44.423 22.733 44.535 43.846h0.019v200.015c-0.13 17.762-24.334 17.091-24.241 0.67zM577.778 715.45v-335.537h36.864v-220.923c0.074-48.966 69.52-49.729 69.427 0v556.46c0.112 78.122-106.328 78.122-106.291 0z" />
<glyph unicode="&#xe90f;" glyph-name="twitter" d="M1013.58 759.195c-36.864-16.435-76.544-27.494-118.067-32.307 42.291 25.293 75.213 65.741 90.266 113.971-39.322-23.757-83.354-41.011-130.56-50.074-37.53 40.038-91.034 64.922-149.965 64.922-114.022 0-206.234-92.006-206.234-205.722 0-16.128 1.894-31.898 5.427-47.104-170.906 8.653-322.867 90.522-424.294 215.347-17.715-30.618-28.058-65.997-28.058-103.834 0-71.219 36.506-134.144 91.75-171.11-33.792 1.075-65.69 10.189-93.235 25.754 0-0.922 0-1.946 0-2.458 0-99.738 70.861-183.142 165.018-202.138-17.306-4.557-35.584-7.168-54.221-7.168-13.158 0-25.958 1.331-38.861 3.43 26.368-81.306 102.246-140.851 192.666-142.848-70.605-55.040-159.232-87.757-255.846-87.757-16.742 0-33.126 1.075-48.947 2.816 91.034-58.419 199.066-92.621 315.443-92.621 378.522 0 585.882 313.805 585.882 585.882 0 8.653-0.461 17.664-0.461 26.573 39.987 29.082 74.752 65.126 102.298 106.445z" />
<glyph unicode="&#xe910;" d="M512 960c-282.307 0-512-229.674-512-512s229.693-512 512-512 512 229.674 512 512-229.693 512-512 512zM512-26.764c-261.79 0-474.764 212.973-474.764 474.764s212.973 474.764 474.764 474.764 474.764-212.973 474.764-474.764-212.973-474.764-474.764-474.764z" />
<glyph unicode="&#xe911;" d="M635.867 670.245h-25.116v124.779c0 10.277-8.322 18.618-18.618 18.618h-160.284c-10.296 0-18.618-8.341-18.618-18.618v-124.798h-25.116c-54.831 0-99.44-44.609-99.44-99.421v-315.783c0-53.955 43.269-97.783 96.908-99.179v-25.321c0-26.55 21.597-48.165 49.599-48.165 26.55 0 48.147 21.616 48.147 48.165v25.079h57.307v-25.079c0-26.55 21.597-48.165 49.599-48.165 26.55 0 48.147 21.616 48.147 48.165v25.321c53.62 1.378 96.889 45.205 96.908 99.179v315.783c0.019 54.831-44.572 99.44-99.421 99.44zM450.467 776.406h123.048v-11.971h-123.048v11.971zM450.467 727.217h123.048v-56.972h-123.048v56.972zM446.11 130.523c0-6.032-4.897-10.929-12.362-10.929-6.014 0-10.91 4.897-10.91 10.929v25.079h23.273v-25.079zM601.162 130.523c0-6.032-4.897-10.929-12.362-10.929-6.014 0-10.91 4.897-10.91 10.929v25.079h23.273v-25.079zM698.051 255.023c0-34.295-27.89-62.185-62.185-62.185h-247.734c-34.295 0-62.203 27.909-62.203 62.185v315.783c0 34.295 27.909 62.185 62.203 62.185h247.752c34.295 0 62.203-27.909 62.203-62.185l-0.037-315.783z" />
<glyph unicode="&#xe912;" d="M592.151 502.589h-160.284c-10.296 0-18.618-8.341-18.618-18.618s8.322-18.618 18.618-18.618h160.284c10.296 0 18.618 8.341 18.618 18.618s-8.341 18.618-18.618 18.618z" />
<glyph unicode="&#xe913;" glyph-name="youtube" d="M1005.653 649.259c0 0-9.685 69.504-40.149 100.011-38.016 40.491-81.109 40.491-100.864 42.709-141.056 10.112-352.469 10.112-352.469 10.112h-0.256c0 0-211.755 0-352.469-10.112-19.755-2.219-62.72-2.219-101.12-42.709-29.995-30.507-39.851-100.011-39.851-100.011s-9.984-81.195-9.984-162.987v-76.288c0-81.621 9.984-162.987 9.984-162.987s9.813-69.376 39.851-99.968c38.4-40.32 88.832-38.912 111.232-43.136 80.683-7.851 342.571-9.984 342.571-9.984s211.413 0.171 352.469 10.24c19.755 2.56 62.891 2.56 100.864 42.88 30.507 30.592 40.149 99.968 40.149 99.968s9.813 81.365 9.813 162.987v76.288c0.085 81.792-9.771 162.987-9.771 162.987zM958.677 409.984c0-77.312-9.344-155.435-9.429-156.16-3.328-22.955-14.123-56.747-24.021-66.688-20.48-21.717-41.088-23.851-59.264-25.685l-8.619-0.939c-132.053-9.344-336.256-9.771-345.003-9.771-9.131 0.085-256.725 2.304-335.232 9.557-4.309 0.725-9.216 1.323-14.677 2.005-21.205 2.517-45.269 5.376-62.976 23.979-11.093 11.307-21.717 47.488-24.704 68.693 0 0-9.472 78.208-9.472 155.051v76.245c0 77.141 9.515 155.307 9.6 156.075 3.413 23.125 14.165 57.131 23.979 67.029 20.693 21.845 41.301 23.723 59.477 25.387l7.467 0.725c134.741 9.685 344.021 9.771 346.112 9.771 2.347 0 211.285-0.128 348.629-9.984l5.205-0.512c18.176-1.664 38.699-3.541 58.283-24.363 11.776-11.861 22.357-47.829 25.344-68.949 0 0 9.301-78.080 9.301-155.179v-76.288zM388.906 294.016l296.235 153.301-296.235 154.667z" />
</font>
</defs>
</svg>
